携帯動画変換君でSH008用に動画を変換する

スポンサーリンク

こないだ、相方と揃って入庭した。

理由は簡単。

メインで使っていたソフトバンク、自宅で電波が入りにくい。

特に雨戸を閉めると普通に圏外。

ボーダ時代を思い出す。

「世界で圏内、自宅で圏外!」

ここ数カ月は特にひどい。

リピータでごまかしてる場合か、ソフトバンク。

圏外ではどうしようもないので、ソフトバンクは月月割が終わるまで8円ケータイとして寝かすことにした。

で、手持ちのIS01とN-06Aとで電波の入りを確認した結果、auをメインにする方向としたわけである。

auにするといいことがもう1つ。

海外でのEメール送受信がソフトバンクより安い。

ソフトバンクはMMSの送受信に1通当たり100円のミニマムチャージ!!がかかる。

auはそれがない。

単価もauの方が安い。

あと無料通話を海外での通信通話に割り当てられる。

でで、とりあえず相方のSH008とオレサマのCA003用に動画変換しようとしたのだが。。

auの端末、相変わらず動画周りが七面倒。

例によって設定を詰めてはいないがSH008(*2)の一例(XVid+AAC、3gpp2コンテナ)として挙げておきたい。

この設定では、画像サイズの仕様は次の通りとなる。

 ・アスペクト比16:9用

  640×360に変換して上下60ピクセルパディング

 ・アスペクト比4:3用

  640×480に変換

この設定を使用する際はいわゆる最新ffmpegの実行バイナリとNeroAACコーデックバイナリが必要となる。

このためffmpeg実行バイナリを入手後、入手した「ffmpeg.exe」を「ffmpeg2.exe」にリネームして「cores」フォルダに入れること。

またhttp://www.nero.com/jpn/technologies-aac-codec.html からNeroDigitalAudio.zipを入手し解凍して出てくる「win32」フォルダ内にある3つのexeファイルを「cores」フォルダに入れる必要がある。

あと、予めSH008本体で撮影したムービーに偽装するためのファイル「Camouflage_MOVIE_for_SH008.ini」を「cores」フォルダに入れておく。

「Camouflage_MOVIE_for_SH008.ini」は以下の通り。

[Config]
Title=SH008本体で撮影したムービーに偽装します
UUID=%A8%8C%11%D4%81%97%00%90%27%08%77%03
Build_mfra=1

[DeleteAtom]
Item0=ftyp
Item1=uuid
Item2=free
Item3=drm%20

[InsertAtom]
Item0=ftypkddi%00%00%01%00kddi3g2a
Item1=uuidcpgd<%UUID%>%00%00%00%00%00%00%00%00%00%00%00%00%00%00%00%00%00%00%00%00
Item2=uuidenci<%UUID%>%00%00%00%00KDDI-SH%00SH008%00%00%00QCAM71%20%20QTVF62%20%20
Item3=uuidmvml<%UUID%>%00%00%00%00%FF%FF%E0%00<%TIMESTAMP%>

このファイルをzipで固めたものをここに挙げておく。

肝心の変換スクリプトは以下の通り。

[Info]
Title=_機種別設定:au Sharp SH008向け設定
TitleE=Model:For au Sharp SH008
Description=au Sharp SH008向け設定:(Xvid + AAC).3g2
DescriptionE=Setting adjusted for au Sharp SH008 to 3g2 used Xvid engine.

[Item0]
Title=16:9source -> 3g2(640x(60+360+60)) / Xvid 1000kbps 30fps / AAC 192kbps Stereo

Command0=""<%AppPath%>\cores\ffmpeg2" -threads 3 -i "<%InputFile%>" -vn -acodec pcm_s16le -ac 2 -y "<%TemporaryFile%>.wav""
Command1=""<%AppPath%>\cores\neroAacEnc" -if "<%TemporaryFile%>.wav" -lc -br 192000 -of "<%TemporaryFile%>.aac"
Command2=""<%AppPath%>\cores\ffmpeg2" -y -threads 3 -i "<%TemporaryFile%>.aac" -i "<%InputFile%>" -timestamp "<%TimeStamp%>" -vcodec libxvid -s 640×360 -padtop 60 -padbottom 60 -r 30 -b 1000k  -acodec copy -muxrate 320k -async 100 -f 3g2 "<%TemporaryFile%>_1.3g2""
Command3=""<%AppPath%>\cores\ATOMChanger" "<%TemporaryFile%>_1.3g2" "<%OutputFile%>.3g2" "Camouflage_MOVIE_for_SH008.ini""
Command4="cmd /c "del "<%TemporaryFile%>*.*"""

[Item1]
Title=4:3source -> 3g2(640×480) / Xvid 1000kbps 30fps / AAC 192kbps Stereo

Command0=""<%AppPath%>\cores\ffmpeg2" -threads 3 -i "<%InputFile%>" -vn -acodec pcm_s16le -ac 2 -y "<%TemporaryFile%>.wav""
Command1=""<%AppPath%>\cores\neroAacEnc" -if "<%TemporaryFile%>.wav" -lc -br 192000 -of "<%TemporaryFile%>.aac"
Command2=""<%AppPath%>\cores\ffmpeg2" -y -threads 3 -i "<%TemporaryFile%>.aac" -i "<%InputFile%>" -timestamp "<%TimeStamp%>" -vcodec libxvid -s 640×480 -r 30 -b 1000k  -acodec copy -muxrate 320k -async 100 -f 3g2 "<%TemporaryFile%>_1.3g2""
Command3=""<%AppPath%>\cores\ATOMChanger" "<%TemporaryFile%>_1.3g2" "<%OutputFile%>.3g2" "Camouflage_MOVIE_for_SH008.ini""
Command4="cmd /c "del "<%TemporaryFile%>*.*"""

御覧の通り「QT3GPPFlatten」は不要。

このファイルをzipで固めたものをここに挙げておく。

上記の変換スクリプトで、pad関連のエラーやpixel aspect ratioのエラーが出る場合(*1)や、拡張子がaviの動画変換時にエラーが出る場合(*3)、以下を試してほしい。

[Info]
Title=_機種別設定:au Sharp SH008向け設定
TitleE=Model:For au Sharp SH008
Description=au Sharp SH008向け設定:(Xvid + AAC).3g2
DescriptionE=Setting adjusted for au Sharp SH008 to 3g2 used Xvid engine.

[Item0]
Title=16:9source -> 3g2(640x(60+360+60)) / Xvid 1000kbps 30fps / AAC 192kbps Stereo

Command0=""\cores\ffmpeg2" -threads 3 -i "" -vn -acodec pcm_s16le -ac 2 -y ".wav""
Command1=""\cores\neroAacEnc" -if ".wav" -lc -br 192000 -of ".aac"
Command2=""\cores\ffmpeg2" -y -threads 3 -i "" -timestamp "" -vcodec libxvid -vf "scale=640:360,setdar=16:9,pad=0:480:0:60" -r 30 -b 1000k -an -f 3g2 "_1.3g2""
Command3=""\cores\ffmpeg2" -y -threads 3 -i ".aac" -i "_1.3g2" -timestamp "" -vcodec copy -acodec copy -muxrate 320k -async 100 -f 3g2 "_2.3g2""
Command4=""\cores\ATOMChanger" "_2.3g2" ".3g2" "Camouflage_MOVIE_for_SH008.ini""
Command5="cmd /c "del "*.*"""

[Item1]
Title=4:3source -> 3g2(640×480) / Xvid 1000kbps 30fps / AAC 192kbps Stereo

Command0=""\cores\ffmpeg2" -threads 3 -i "" -vn -acodec pcm_s16le -ac 2 -y ".wav""
Command1=""\cores\neroAacEnc" -if ".wav" -lc -br 192000 -of ".aac"
Command2=""\cores\ffmpeg2" -y -threads 3 -i "" -timestamp "" -vcodec libxvid -vf "scale=640:480,setdar=4:3" -r 30 -b 1000k -an -f 3g2 "_1.3g2""
Command3=""\cores\ffmpeg2" -y -threads 3 -i ".aac" -i "_1.3g2" -timestamp "" -vcodec copy -acodec copy -muxrate 320k -async 100 -f 3g2 "_2.3g2""
Command4=""\cores\ATOMChanger" "_2.3g2" ".3g2" "Camouflage_MOVIE_for_SH008.ini""
Command5="cmd /c "del "*.*"""

[Item2]
Title=16:9source -> 3g2(320x(30+180+30)) / Xvid 300kbps 15fps / AAC 96kbps Stereo

Command0=""\cores\ffmpeg2" -threads 3 -i "" -vn -acodec pcm_s16le -ac 2 -y ".wav""
Command1=""\cores\neroAacEnc" -if ".wav" -lc -br 96000 -of ".aac"
Command2=""\cores\ffmpeg2" -y -threads 3 -i "" -timestamp "" -vcodec libxvid -vf "scale=320:180,setdar=16:9,pad=0:240:0:30" -r 15 -b 300k -an -f 3g2 "_1.3g2""
Command3=""\cores\ffmpeg2" -y -threads 3 -i ".aac" -i "_1.3g2" -timestamp "" -vcodec copy -acodec copy -muxrate 320k -async 100 -f 3g2 "_2.3g2""
Command4=""\cores\ATOMChanger" "_2.3g2" ".3g2" "Camouflage_MOVIE_for_SH008.ini""
Command5="cmd /c "del "*.*"""

[Item3]
Title=4:3source -> 3g2(320×240) / Xvid 300kbps 15fps / AAC 96kbps Stereo

Command0=""\cores\ffmpeg2" -threads 3 -i "" -vn -acodec pcm_s16le -ac 2 -y ".wav""
Command1=""\cores\neroAacEnc" -if ".wav" -lc -br 96000 -of ".aac"
Command2=""\cores\ffmpeg2" -y -threads 3 -i "" -timestamp "" -vcodec libxvid -vf "scale=320:240,setdar=4:3" -r 15 -b 300k -an -f 3g2 "_1.3g2""
Command3=""\cores\ffmpeg2" -y -threads 3 -i ".aac" -i "_1.3g2" -timestamp "" -vcodec copy -acodec copy -muxrate 320k -async 100 -f 3g2 "_2.3g2""
Command4=""\cores\ATOMChanger" "_2.3g2" ".3g2" "Camouflage_MOVIE_for_SH008.ini""
Command5="cmd /c "del "*.*"""

このファイルをzipで固めたものをここに挙げておく。

640×480の動画に変換する設定と、320×480の動画に変換する設定がある。

640×480の動画変換設定は1000kbpsとビットレートが高いので、SH007などではカクカクする、というご報告を頂いた。

ビットレートはお好きなように修正願う。

320×240の動画変換設定は300kbpsとビットレートを抑えているが、画質的には十分ともいえる。

16:9の設定で変換した動画は全画面表示が可能。

CA003もほぼ同様にすればよい。

これについては別記事にて紹介する。

(*1)使用するffmpegのオブジェクトによってはエラーが出るようです。

また、SH007でも問題ないことをコメントより報告頂きました。

ひょっとするとSH010、SH009、SH006などでも問題ないのかもしれません。

(10/10/23 追記)

(*2)SH009,SH010での動作報告を頂きました。

(10/11/11 追記)

(*3)拡張子がaviの動画の場合エラーが出る場合があるので、設定ファイルを差し替えました。

(11/4/30 追記)

16GB 高速書き込み対応microSDHC

コメント

  1. SHF より:

    こちらの設定はSH007でも使えますでしょうか?

  2. white-voice より:

    SHFさん、コメントありがとうございます。
    当方、SH007を所持しておりませんので試すことができません。
    SH007をお持ちであれば上記設定で動画を変換して試してみるのが手っ取り早いかと思います。
    SH007で撮った拡張子3g2の動画ファイルがあれば調べることができるのですが。
    SH007で撮った拡張子3g2の動画がアップロードされているサイトを紹介いただければお調べいたします。
    ・・・時間があれば。
    (すみませんが確約はいたしかねます)

  3. SHF より:

    お返事ありがとうござます。検索したところ、
    下記ページにSH007で撮影した動画がありました。
    http://www.dailymotion.com/video/xdzmtw_au-sh007-yyyy-vgayy_tech
    お手数をおかけして大変申し訳ないのですが、
    お手透きの時にご調査お願いいたします。

  4. white-voice より:

    SHFさん、こんばんは。
    ご紹介のページの動画はコンテナがmp4に変換されているようです。
    おそらくこのような形でアップロードされている動画は、コンテナが変わっていると思われますので、調査できない動画となります。
    可能であれば、SHFさんお持ちのSH007で
     (1)最高画質、最高解像度で拡張子3g2の動画を撮影後、
     (2)その動画ファイルをPCに転送後、
     (3)ZIPで圧縮し、
     (4)適当なアップローダにアップロードし、
     (5)そのアップローダのURLをご教示願います。
    (1)は5秒程度の動画で十分、真っ暗な映像でもかまいません。
    (3)はアップロード時に動画のヘッダが変わってしまうのを防ぐためです。ZIP圧縮により逆にファイルサイズが増えてしまうかもしれませんが気にしないでください。
    なお、上記作業につきましては、自己責任で行うようお願いします。
    ちょっとでも気になることがあるなら上記は実施しないようお願いします。
    また、著作権や肖像権などに触れるようなものを撮影しないようにご注意いただき、利用するアップローダの注意事項や運用基準を遵守願います。
    上記の実施により生じた責任や損害などには当方は一切関知しません。
    (3)のZIPファイルをこちらに渡す方法が他にあれば、その方法を実施願います。
    しつこいようですが、調査の確約はいたしかねます。
    堅苦しいことを申し上げるようで申し訳ありませんがよろしくお願いします。
    P.S.ちなみにお伺いしますが、本記事のSH008用設定で変換した動画はSH007で再生できなかったのでしょうか。

  5. SHF より:

    お返事が遅くなって申し訳ありません。
    当方SH007を購入検討している段階で、
    こちらの設定が使えればと思った次第です。
    尚、試しに16:9の動画を変換してみましたが、
    以下のようなエラーが発生しました。
    Processed 260 seconds…
    Processed 261 seconds…
    Processed 262 seconds…
    Processed 263 seconds…
    Processed 264 seconds…
    Processed 265 seconds…
    Processed 266 seconds…
    Processed 267 seconds…
    Processed 268 seconds…
    Processed 269 seconds…
    Processed 270 seconds…
    Processed 271 seconds…
    Processed 272 seconds…
    Processed 273 seconds…
    Processed 274 seconds…
    Processed 275 seconds…
    Processed 276 seconds…
    Processed 277 seconds…
    Processed 278 seconds…
    Processed 279 seconds…
    Processed 280 seconds…
    Processed 281 seconds…
    Processed 282 seconds…
    Processed 283 seconds…
    Processed 284 seconds…
    Processed 285 seconds…
    Processed 286 seconds…
    Processed 287 seconds…
    Processed 288 seconds…
    Processed 289 seconds…
    Processed 290 seconds…
    Processed 291 seconds…
    Processed 292 seconds…
    Processed 293 seconds…
    Processed 294 seconds…
    Processed 295 seconds…
    Processed 296 seconds…
    Processed 297 seconds…
    Processed 298 seconds…
    Processed 299 seconds…
    Processed 300 seconds…
    Processed 301 seconds…
    Processed 302 seconds…
    Processed 303 seconds…
    Processed 304 seconds…
    Processed 305 seconds…
    Processed 306 seconds…
    Processed 307 seconds…
    Processed 308 seconds…
    Processed 309 seconds…
    Processed 310 seconds…
    Processed 311 seconds…
    Processed 312 seconds…
    Processed 313 seconds…
    Processed 314 seconds…
    Processed 315 seconds…
    Processed 316 seconds…
    Processed 317 seconds…
    Processed 318 seconds…
    Processed 319 seconds…
    Processed 320 seconds…
    Processed 321 seconds…
    E>"C:\Documents and Settings\Owner\My Documents\3GP_Converter_SH008\cores\ffmpeg2" -y -threads 3 -i "C:\DOCUME~1\Owner\LOCALS~1\Temp\C4207377-4F70BB7B-7BB7C037-73F707D0.aac" -i "C:\Documents and Settings\Owner\My Documents\ミュージック\GARNET CROW\Hello Sadness\1280×720.mp4" -timestamp "2010-01-05 16:23:08" -vcodec libxvid -s 640×360 -padtop 60 -padbottom 60 -r 30 -b 1000k -acodec copy -muxrate 320k -async 100 -f 3g2 "C:\DOCUME~1\Owner\LOCALS~1\Temp\C4207377-4F70BB7B-7BB7C037-73F707D0_1.3g2"
    FFmpeg version SVN-r25287, Copyright (c) 2000-2010 the FFmpeg developers
    built on Oct 2 2010 01:35:48 with gcc 4.5.1
    configuration: –enable-memalign-hack –enable-gpl –enable-version3 –enable-postproc –enable-libopencore-amrnb –enable-libopencore-amrwb –enable-libgsm –enable-libmp3lame –enable-librtmp –enable-libvorbis –enable-libtheora –enable-libxvid –enable-libvpx –enable-libx264 –disable-ffserver –disable-ffplay –disable-ffprobe –enable-avisynth –enable-small –enable-pthreads –extra-ldflags=-static –extra-cflags='-march=i686 -mtune=generic -fno-strict-aliasing'
    libavutil 50.32. 0 / 50.32. 0
    libavcore 0. 9. 0 / 0. 9. 0
    libavcodec 52.92. 0 / 52.92. 0
    libavformat 52.79. 0 / 52.79. 0
    libavdevice 52. 2. 2 / 52. 2. 2
    libavfilter 1.48. 0 / 1.48. 0
    libswscale 0.12. 0 / 0.12. 0
    libpostproc 51. 2. 0 / 51. 2. 0
    Input #0, mov,mp4,m4a,3gp,3g2,mj2, from 'C:\DOCUME~1\Owner\LOCALS~1\Temp\C4207377-4F70BB7B-7BB7C037-73F707D0.aac':
    Metadata:
    major_brand : mp42
    minor_version : 0
    compatible_brands: M4A mp42isom
    encoder : Nero AAC codec / 1.5.4.0
    Duration: 00:05:21.48, start: 0.000000, bitrate: 187 kb/s
    Chapter #0.0: start 0.059501, end 321.480272
    Metadata:
    title :
    Stream #0.0(und): Audio: aac, 44100 Hz, stereo, s16, 185 kb/s
    Seems stream 1 codec frame rate differs from container frame rate: 59.93 (29967/500) -> 29.97 (29967/1000)
    Input #1, mov,mp4,m4a,3gp,3g2,mj2, from 'C:\Documents and Settings\Owner\My Documents\ミュージック\GARNET CROW\Hello Sadness\1280×720.mp4':
    Metadata:
    major_brand : mp42
    minor_version : 0
    compatible_brands: isomavc1mp42
    Duration: 00:05:21.42, start: 0.000000, bitrate: 2106 kb/s
    Stream #1.0(und): Audio: aac, 44100 Hz, stereo, s16, 121 kb/s
    Stream #1.1(und): Video: h264, yuv420p, 1280×720 [PAR 1:1 DAR 16:9], 1981 kb/s, 29.97 fps, 29.97 tbr, 29967 tbn, 59.93 tbc
    Option 'padtop' has been removed, use the pad filter instead
    C:\Documents and Settings\Owner\My Documents\3GP_Converter_SH008\cores\ffmpeg2: failed to set value '60' for option 'padtop'
    A>Dialog : 処理実行中にエラーが発生しました [Error:1]
    T>Finished.
    原因はお分かりになりますでしょうか?

  6. white-voice より:

    SHFさん、こんばんは。
    ご報告ありがとうございます。
    ffmpegのオプションを見直した設定ファイルを試してみていただけないでしょうか。
    http://white-voice.cocolog-nifty.com/Transcoding_SH008_101019.zip
    一応、当方の環境では問題ない設定です。
    結果を報告いただければ幸いです。

  7. SHF より:

    新しい設定ファイルまでご用意頂き、ありがとうございます。
    試してみたところ、以下のような結果になりました。
    Processed 269 seconds…
    Processed 270 seconds…
    Processed 271 seconds…
    Processed 272 seconds…
    Processed 273 seconds…
    Processed 274 seconds…
    Processed 275 seconds…
    Processed 276 seconds…
    Processed 277 seconds…
    Processed 278 seconds…
    Processed 279 seconds…
    Processed 280 seconds…
    Processed 281 seconds…
    Processed 282 seconds…
    Processed 283 seconds…
    Processed 284 seconds…
    Processed 285 seconds…
    Processed 286 seconds…
    Processed 287 seconds…
    Processed 288 seconds…
    Processed 289 seconds…
    Processed 290 seconds…
    Processed 291 seconds…
    Processed 292 seconds…
    Processed 293 seconds…
    Processed 294 seconds…
    Processed 295 seconds…
    Processed 296 seconds…
    Processed 297 seconds…
    Processed 298 seconds…
    Processed 299 seconds…
    Processed 300 seconds…
    Processed 301 seconds…
    Processed 302 seconds…
    Processed 303 seconds…
    Processed 304 seconds…
    Processed 305 seconds…
    Processed 306 seconds…
    Processed 307 seconds…
    Processed 308 seconds…
    Processed 309 seconds…
    Processed 310 seconds…
    Processed 311 seconds…
    Processed 312 seconds…
    Processed 313 seconds…
    Processed 314 seconds…
    Processed 315 seconds…
    Processed 316 seconds…
    Processed 317 seconds…
    Processed 318 seconds…
    Processed 319 seconds…
    Processed 320 seconds…
    Processed 321 seconds…
    E>"C:\Documents and Settings\Owner\My Documents\3GP_Converter034\3GP_Converter034\cores\ffmpeg2" -y -threads 3 -i "C:\DOCUME~1\Owner\LOCALS~1\Temp\1799E6CF-8882CAD4-BB5A99A6-CAD63DD0.aac" -i "C:\DOCUME~1\Owner\LOCALS~1\Temp\CD946A01-9C489F39-B1CDB845-582322E2.avs" -timestamp "2010-01-05 16:23:08" -vcodec libxvid -s 640×360 -vf "pad=0:480:0:60" -r 30 -b 1000k -acodec copy -muxrate 320k -async 100 -f 3g2 "C:\DOCUME~1\Owner\LOCALS~1\Temp\1799E6CF-8882CAD4-BB5A99A6-CAD63DD0_1.3g2"
    FFmpeg version SVN-r25472, Copyright (c) 2000-2010 the FFmpeg developers
    built on Oct 15 2010 03:49:29 with gcc 4.5.1
    configuration: –enable-memalign-hack –enable-gpl –enable-version3 –enable-postproc –enable-libopencore-amrnb –enable-libopencore-amrwb –enable-libgsm –enable-libmp3lame –enable-librtmp –enable-libvorbis –enable-libtheora –enable-libxvid –enable-libvpx –enable-libx264 –disable-ffserver –disable-ffplay –disable-ffprobe –enable-avisynth –enable-small –enable-pthreads –extra-ldflags=-static –extra-cflags='-march=i686 -mtune=generic -fno-strict-aliasing'
    libavutil 50.32. 3 / 50.32. 3
    libavcore 0. 9. 1 / 0. 9. 1
    libavcodec 52.92. 0 / 52.92. 0
    libavformat 52.82. 0 / 52.82. 0
    libavdevice 52. 2. 2 / 52. 2. 2
    libavfilter 1.51. 1 / 1.51. 1
    libswscale 0.12. 0 / 0.12. 0
    libpostproc 51. 2. 0 / 51. 2. 0
    Input #0, mov,mp4,m4a,3gp,3g2,mj2, from 'C:\DOCUME~1\Owner\LOCALS~1\Temp\1799E6CF-8882CAD4-BB5A99A6-CAD63DD0.aac':
    Metadata:
    major_brand : mp42
    minor_version : 0
    compatible_brands: M4A mp42isom
    encoder : Nero AAC codec / 1.5.4.0
    Duration: 00:05:21.36, start: 0.000000, bitrate: 187 kb/s
    Chapter #0.0: start 0.059501, end 321.364172
    Metadata:
    title :
    Stream #0.0(und): Audio: aac, 44100 Hz, stereo, s16, 185 kb/s
    Input #1, avs, from 'C:\DOCUME~1\Owner\LOCALS~1\Temp\CD946A01-9C489F39-B1CDB845-582322E2.avs':
    Duration: 00:05:21.45, start: 0.000000, bitrate: 0 kb/s
    Stream #1.0: Video: rawvideo, yuv420p, 1280×720, 331377 kb/s, 29.96 tbr, 29.96 tbn, 29.96 tbc
    Stream #1.1: Audio: pcm_s16le, 44100 Hz, 2 channels, s16, 1411 kb/s
    [buffer @ 018e4a00] w:1280 h:720 pixfmt:yuv420p
    [scale @ 078c9530] w:1280 h:720 fmt:yuv420p -> w:640 h:360 fmt:yuv420p flags:0xa0000004
    [pad @ 078c97f0] w:640 h:480 x:0 y:60 color:0x108080FF[yuva]
    Output #0, 3g2, to 'C:\DOCUME~1\Owner\LOCALS~1\Temp\1799E6CF-8882CAD4-BB5A99A6-CAD63DD0_1.3g2':
    Metadata:
    encoder : Lavf52.82.0
    Chapter #0.0: start 0.059501, end 321.364172
    Metadata:
    title :
    Stream #0.0: Video: mpeg4, yuv420p, 640×480, q=2-31, 1000 kb/s, 30 tbn, 30 tbc
    Stream #0.1(und): Audio: aac, 44100 Hz, stereo, 185 kb/s
    Stream mapping:
    Stream #1.0 -> #0.0
    Stream #0.0 -> #0.1
    Press [q] to stop encoding
    [libxvid @ 0192d660] Invalid pixel aspect ratio 0/1
    Video encoding failed
    A>Dialog : 処理実行中にエラーが発生しました [Error:1]
    T>Finished.
    これは変換しようとしているファイル自体に問題があるのか、
    当方のPCに入っているAviAynthやffdshowが原因かもしれませんね。

  8. white-voice より:

    SHFさん、こんばんは。
    再度のご報告ありがとうございます。
    ご推察の通り、エラーの原因は入力ファイルにあると思われます。
    ffmpegのオプションでアスペクト比を明示した設定ファイルを試してみていただけないでしょうか。
    http://white-voice.cocolog-nifty.com/Transcoding_SH008_101021.zip
    一応、当方の環境では問題ない設定です。
    結果を報告いただければ幸いです。
    P.S.
    手前味噌で恐縮ですが、XMedia Recodeで動画変換する方法も別記事で紹介していますので、よろしければ試してみてください。
    http://wv4short.com/wv/wp-content/uploads/wv/2010/09/xmedia-recodesh.html

  9. 通りすがり より:

    SH007所持者です。
    動画の変換方法を探していてここに来ました。
    このページの方法を一通り試したところ、2010年10月21日 (木) 19時23分投稿のzipを使ったら変換できました。大き目のサイズ、小さ目のサイズの動画を試し、両方ともSH007で再生できました。
    ありがとうございました!

  10. white-voice より:

    通りすがりさん、こんばんは。
    ご報告ありがとうございます。
    型番的には、前機種となるSH007で再生できるということは、偽装は必要だが多少の型番の違いは許容するようですね。
    勝手な推測をすると、録画性能が同等であれば同一メーカーの異なる型番の偽装でもよいのかもしれません。
    そうすると、SH010、SH009、SH006などでも再生できる可能性が高いといえますね。

  11. SHF より:

    お世話になっております。
    AviSynthをアンインストールしてみたところ、
    先にご提示頂いた設定(19日の方)で変換出来ました!
    勿論21日分の設定でも問題ありませんでした。
    通りすがりさんがSH007で再生出来たという事なので、
    近い内に契約してこようかと思います。
    色々お手数をおかけして申し訳ありませんでした。
    また、お時間を割いて頂きありがとうございました!
    XMedia Recodeの方も試してみようと思います。

  12. white-voice より:

    SHFさん、こんばんは。
    pixel aspect ratioエラーは環境によるものだったのですね。失礼いたしました。
    ともあれ、お役に立てたようで何よりです。

  13. 匿名 より:

    SH009 Ok!! Thanks!!
    ヽ(´▽`)/

  14. white-voice より:

    ななしさん、こんばんは。
    コメントありがとうございます。
    10/23に、SH009でも再生できる可能性が高いとコメントしていましたので、今回の再生報告は助かります。
    SH009はSH005の後継機種と考えてよいかと思いますが、こうなるとSH005でも再生できる可能性が高い、といえるかもしれませんね。

  15. 匿名 より:

    sh010で再生できましたので報告しておきます。
    どちらの設定もいけました。

  16. white-voice より:

    ななしさん、こんばんは。
    コメントありがとうございます。
    SH010でもOK、とのことで本文にも追記させていただこうかと思います。

  17. shibainu より:

    サイト主様に質問なのですが、音楽ファイルにも適用できるのでしょうか?
    教えてください。

  18. white-voice より:

    shibainuさん、こんばんは。
    音楽ファイルに適用したファイル、PCでは再生できますが、SH008では不正ファイル扱いとなりました。
    ちょこちょこオプションをいじってみましたが現象は変わりませんでした。
    なにか進展があったらまたコメントします。

  19. 匿名 より:

    s005、 w62sh確認できました!!

  20. white-voice より:

    ななしさん、こんばんは。
    コメントありがとうございます。
    W62SHは同メーカーなのでまだわかるのですが、S005はソニーのBRAVIA PHONEですよね?
    異なるメーカー用の偽装でもよい場合がある、ということですかね?

  21. しん より:

    SH007で再生出来ました^^
    はじめは全然理解できませんでしたが、なんとか辿り着きました^^;
    ちなみに640*480の動画が作成されるのですが、320*240の動画を作成する方法はありますか?
    携帯動画変換君で色々試してみたのですが、何故か再生されません^^;

  22. white-voice より:

    しんさん、こんばんは。
    コメントありがとうございます。
    無事再生できたようでなによりです。
    320×240の動画を作成することも可能です。
    案外、きれいに視聴できるかもしれませんね。
    手が空いたらやってみます。
    が、あまり期待しないでください。

  23. しん より:

    640*480だと動画がカクカクするものですから^^;
    期待しないでと言われても、期待して待ってます^^

  24. white-voice より:

    しんさん、こんばんは。
    再訪ありがとうございます。
    取り急ぎ、まだお試しでなければ、640×480の各設定のビットレートを変更してみてはいかがでしょうか?
    具体的には"-b 1000k"の部分の1000という数字を減らしてみてください。正直、500kくらいでも十分かもしれないです。
    もちろん、下げ過ぎると出来上がりの動画のクオリティは下がります。

  25. しん より:

    返答ありがとうございました!
    ビットレート変更の仕方がわからなかったんですが、教えていただいて出来ました。
    500で試してみましたが、かなり改善されていました。
    ビットレートは簡単に変更できるんですね。
    大きさは、文字変更してもしなかったので、そんな簡単なものじゃないんですね(笑)
    最近ボーカロイドの曲にハマりまして、色々試していた所でした。ほんとに助かりました。
    ありがとうございました。

  26. しん より:

    済みません。再び疑問があったので質問させてください。
    "-b 1000k"の部分を思い切って200にしてみたのですが、出来上がりが小さくなりません。
    容量も500にした時とほぼ変わらない状況です。
    何故でしょうか?
    データ速度523kbps
    総ビットレート706kbps
    音声のビットレート 183kbps
    このようになっています。
    イメージ的には総ビットレートが500とかになるのかと思っていたのですが、違うのでしょうか。

  27. white-voice より:

    しんさん、こんばんは。
    再訪ありがとうございます。
    ffmpegは、物事には限度がある、と主張しているのではないでしょうか。
    冗談はさておき、ぱっと思いつくことは、フレームレートの変更です。
    現状フレームレートを30としています。
    思い切って半分の15にしてみてはどうでしょう。
    具体的には「-r 30」の数字を15にしてください。
    その上で、ビットレートを下げてみてください。
    (いくらなんでも200kは下げすぎのような気がしますが。)
    ただ、当方で試していないので、再生できない動画ファイルができるかもしれません。
    そのときはご勘弁いただきたく。
    ついでですが、再生時の負荷を下げたいならば音声のビットレートも下げてみてはいかがでしょう。
    具体的には「-br 192000」の数字を下げてみてください。
    半分くらいの96000にしても意外に悪くない音質かもしれません。
    もちろん下げすぎれば音質は明らかに低下するはずです。

  28. たつや より:

    white-voiceさん、初めまして。
    下記のエラーが発生して困っています。お分かりでしたら御教示頂けないでしょうか。
    音声ファイルのサンプルレートを、-ar 44100Hz等、追記してみましたが、解決出来ませんでした。
    E>"C:\Documents and Settings\admin\デスクトップ\携帯動画変換君 Version 0.34 (3GP_Converter034\3GP_Converter034\cores\ffmpeg2" -y -threads 3 -i "C:\DOCUME~1\admin\LOCALS~1\Temp\205D14B0-2F582815-78AF9615-660B9406.aac" -i "C:\Documents and Settings\admin\My Documents\XXXXX.avi" -timestamp "2011-04-22 18:46:30" -vcodec libxvid -s 640×480 -aspect 4:3 -r 30 -b 1000k -acodec copy -muxrate 320k -async 100 -f 3g2 "C:\DOCUME~1\admin\LOCALS~1\Temp\205D14B0-2F582815-78AF9615-660B9406_1.3g2"
    FFmpeg version git-N-29060-g8b7dc08, Copyright (c) 2000-2011 the FFmpeg developers
    built on Apr 13 2011 00:02:23 with gcc 4.6.0
    configuration: –enable-memalign-hack –enable-gpl –enable-version3 –enable-postproc –enable-libopencore-amrnb –enable-libopencore-amrwb –enable-libgsm –enable-libmp3lame –enable-librtmp –enable-libvorbis –enable-libtheora –enable-libvo-aacenc –enable-libvo-amrwbenc –enable-libxvid –enable-libvpx –enable-libx264 –disable-ffserver –disable-ffplay –disable-ffprobe –enable-avisynth –enable-small –enable-w32threads –extra-ldflags=-static –extra-cflags='-march=i686 -mtune=generic -fno-strict-aliasing'
    libavutil 50. 40. 1 / 50. 40. 1
    libavcodec 52.119. 0 / 52.119. 0
    libavformat 52.106. 0 / 52.106. 0
    libavdevice 52. 4. 0 / 52. 4. 0
    libavfilter 1. 78. 0 / 1. 78. 0
    libswscale 0. 13. 0 / 0. 13. 0
    libpostproc 51. 2. 0 / 51. 2. 0
    Input #0, mov,mp4,m4a,3gp,3g2,mj2, from 'C:\DOCUME~1\admin\LOCALS~1\Temp\205D14B0-2F582815-78AF9615-660B9406.aac':
    Metadata:
    major_brand : mp42
    minor_version : 0
    compatible_brands: M4A mp42isom
    creation_time : 2011-04-23 12:43:37
    encoder : Nero AAC codec / 1.5.4.0
    Duration: 00:23:11.20, start: 0.000000, bitrate: 193 kb/s
    Chapter #0.0: start 0.059501, end 0.059501
    Metadata:
    title :
    Stream #0.0(und): Audio: aac, 44100 Hz, stereo, s16, 191 kb/s
    Metadata:
    creation_time : 2011-04-23 12:43:37
    [mpeg4 @ 01ba3bb0] Invalid and inefficient vfw-avi packed B frames detected
    [mpeg4 @ 01ba3bb0] frame skip 8
    Seems stream 0 codec frame rate differs from container frame rate: 30000.00 (30000/1) -> 30.00 (30/1)
    Input #1, avi, from 'C:\Documents and Settings\admin\My Documents\XXXX.avi':
    Duration: 00:23:11.06, start: 0.000000, bitrate: 845 kb/s
    Stream #1.0: Video: mpeg4, yuv420p, 640×480 [PAR 1:1 DAR 4:3], 30 fps, 30 tbr, 30 tbn, 30k tbc
    Stream #1.1: Audio: mp3, 24000 Hz, stereo, s16, 56 kb/s
    [buffer @ 01b88230] w:640 h:480 pixfmt:yuv420p
    [setdar @ 01bbebe0] a:4/3
    [setdar @ 01bbebe0] w:640 h:480 -> dar:4/3 sar:1/1
    [3g2 @ 01b857e0] track 1: could not find tag, codec not currently supported in container
    Output #0, 3g2, to 'C:\DOCUME~1\admin\LOCALS~1\Temp\205D14B0-2F582815-78AF9615-660B9406_1.3g2':
    Metadata:
    major_brand : mp42
    minor_version : 0
    compatible_brands: M4A mp42isom
    creation_time : 2011-04-23 12:43:37
    encoder : Lavf52.106.0
    Chapter #0.0: start 0.059501, end 0.059501
    Metadata:
    title :
    Stream #0.0: Video: mpeg4, yuv420p, 640×480 [PAR 1:1 DAR 4:3], q=2-31, 1000 kb/s, 30 tbn, 30 tbc
    Stream #0.1: Audio: libmp3lame, 24000 Hz, stereo, 56 kb/s
    Stream mapping:
    Stream #1.0 -> #0.0
    Stream #1.1 -> #0.1
    Could not write header for output file #0 (incorrect codec parameters ?)
    A>Dialog : 処理実行中にエラーが発生しました [Error:1]
    T>Finished.

  29. white-voice より:

    たつやさん、こんにちは。
    コメントありがとうございます。
    拡張子がaviの動画の場合、ご指摘のエラーが出ることがありましたので、変換設定を見直しました。
    お試しください。
    http://white-voice.cocolog-nifty.com/Transcoding_SH008_110430.zip
    一応、当方の環境では問題ない設定です。
    結果を報告いただければ幸いです。

  30. white-voice より:

    しんさん、こんにちは。
    320×240の動画に変換する設定を作ってみました。
    お試しください。
    http://white-voice.cocolog-nifty.com/Transcoding_SH008_110430.zip
    一応、当方の環境では問題ない設定です。
    結果を報告いただければ幸いです。

  31. たつや より:

    white-voiceさん、こんにちは。
    一発で上手くいきました。散々やって上手くいかなかったので諦めていたところです。
    感謝です。ありがとうございました!

  32. white-voice より:

    たつやさん、こんにちは。
    動作報告ありがとうございました。
    無事に変換出来たようでなによりです。

  33. ヒロC より:

    T>エヴァ風予告【MAD】とある魔術の禁書目録#01.mp4 (_機種別設定:au Sharp SH008向け設定/16:9source -> 3g2(640x(60+360+60)) / Xvid 1000kbps 30fps / AAC 192kbps Stereo)
    E>"C:\Users\hiroshi\Documents\携帯動画変換君\cores\ffmpeg2" -threads 3 -i "C:\Users\hiroshi\Desktop\エヴァ風予告【MAD】とある魔術の禁書目録#01.mp4" -vn -acodec pcm_s16le -ac 2 -y "C:\Users\hiroshi\AppData\Local\Temp\58F87FC3-0C399EAA-3D567807-2D8557AE.wav"
    FFmpeg version 23388 (newest: http://www.paehl.com), Copyright (c) 2000-2010 the FFmpeg developers
    built on May 30 2010 16:37:45 with gcc 4.4.0
    Input #0, mov,mp4,m4a,3gp,3g2,mj2, from 'C:\Users\hiroshi\Desktop\エヴァ風予告【MAD】とある魔術の禁書目録#01.mp4':
    Metadata:
    major_brand : mp42
    minor_version : 0
    compatible_brands: isommp42
    Duration: 00:00:28.00, start: 0.000000, bitrate: 1392 kb/s
    Stream #0.0(und): Video: h264, yuv420p, 1280×720, 1235 kb/s, 25 fps, 25 tbr, 1k tbn, 50 tbc
    Stream #0.1(und): Audio: aac, 44100 Hz, stereo, s16, 151 kb/s
    Output #0, wav, to 'C:\Users\hiroshi\AppData\Local\Temp\58F87FC3-0C399EAA-3D567807-2D8557AE.wav':
    Metadata:
    encoder : Lavf52.67.0
    Stream #0.0(und): Audio: pcm_s16le, 44100 Hz, stereo, s16, 1411 kb/s
    Stream mapping:
    Stream #0.1 -> #0.0
    Press [q] to stop encoding
    video:0kB audio:4812kB global headers:0kB muxing overhead 0.000893%
    E>"C:\Users\hiroshi\Documents\携帯動画変換君\cores\neroAacEnc" -if "C:\Users\hiroshi\AppData\Local\Temp\58F87FC3-0C399EAA-3D567807-2D8557AE.wav" -lc -br 192000 -of "C:\Users\hiroshi\AppData\Local\Temp\58F87FC3-0C399EAA-3D567807-2D8557AE.aac
    E>"C:\Users\hiroshi\Documents\携帯動画変換君\cores\ffmpeg2" -y -threads 3 -i "C:\Users\hiroshi\Desktop\エヴァ風予告【MAD】とある魔術の禁書目録#01.mp4" -timestamp "2011-08-08 19:02:04" -vcodec libxvid -vf "scale=640:360,setdar=16:9,pad=0:480:0:60" -r 30 -b 1000k -an -f 3g2 "C:\Users\hiroshi\AppData\Local\Temp\58F87FC3-0C399EAA-3D567807-2D8557AE_1.3g2"
    FFmpeg version 23388 (newest: http://www.paehl.com), Copyright (c) 2000-2010 the FFmpeg developers
    built on May 30 2010 16:37:45 with gcc 4.4.0
    Input #0, mov,mp4,m4a,3gp,3g2,mj2, from 'C:\Users\hiroshi\Desktop\エヴァ風予告【MAD】とある魔術の禁書目録#01.mp4':
    Metadata:
    major_brand : mp42
    minor_version : 0
    compatible_brands: isommp42
    Duration: 00:00:28.00, start: 0.000000, bitrate: 1392 kb/s
    Stream #0.0(und): Video: h264, yuv420p, 1280×720, 1235 kb/s, 25 fps, 25 tbr, 1k tbn, 50 tbc
    Stream #0.1(und): Audio: aac, 44100 Hz, stereo, s16, 151 kb/s
    no such filter: 'setdar'
    Error opening filters!
    A>Dialog : 処理実行中にエラーが発生しました [Error:1]
    T>Finished.
    はじめまして、変換しようとしたらこのようなログがでてきて変換出来ません
    何か、解決方法を教えていただければ幸いです。

  34. white-voice より:

    ひろCさん、こんにちは。
    ログ拝見いたしました。
    どうもお使いのffmpegのバージョンがいささか古いようです。
    もう少し新しいffmpegのバイナリで試してみてください。
    paehlのものでも大丈夫だとは思いますが、弊方では
    以下のサイトにあるバイナリを使っています。
    お気に入りの動画を携帯で見よう
    http://blog.k-tai-douga.com/category/359294-1.html
    ちなみに現在弊方で使っているバージョンは
    FFmpeg rev.29196
    となります。
    もちろん、もっと新しいものでも大丈夫、なハズです。。

  35. ヒロC より:

    T>Blood-C OP.mp4 (_機種別設定:au Sharp SH008向け設定/16:9source -> 3g2(640x(60+360+60)) / Xvid 1000kbps 30fps / AAC 192kbps Stereo)
    E>"C:\Users\hiroshi\Documents\携帯動画変換君\cores\ffmpeg2" -threads 3 -i "C:\Users\hiroshi\Desktop\新しいフォルダー\Blood-C OP.mp4" -vn -acodec pcm_s16le -ac 2 -y "C:\Users\hiroshi\AppData\Local\Temp\7FB120F6-26FC1E5F-D7A369F0-C0DFB287.wav"
    ffmpeg version N-31700-g8400607, Copyright (c) 2000-2011 the FFmpeg developers
    built on Aug 1 2011 00:52:21 with gcc 4.6.1
    configuration: –enable-gpl –enable-version3 –enable-postproc –enable-libopencore-amrnb –enable-libopencore-amrwb –enable-libgsm –enable-libmp3lame –enable-librtmp –enable-libspeex –enable-libvorbis –enable-libtheora –enable-libvo-aacenc –enable-libvo-amrwbenc –enable-libxvid –enable-libvpx –enable-libx264 –disable-ffserver –disable-ffplay –disable-ffprobe –enable-avisynth –enable-w32threads –extra-ldflags=-static –extra-cflags='-march=i686 -mtune=generic' –optflags='-O2 -finline-functions'
    libavutil 51. 11. 1 / 51. 11. 1
    libavcodec 53. 9. 0 / 53. 9. 0
    libavformat 53. 6. 0 / 53. 6. 0
    libavdevice 53. 2. 0 / 53. 2. 0
    libavfilter 2. 27. 5 / 2. 27. 5
    libswscale 2. 0. 0 / 2. 0. 0
    libpostproc 51. 2. 0 / 51. 2. 0
    Seems stream 0 codec frame rate differs from container frame rate: 48.00 (12001/250) -> 24.00 (24/1)
    Input #0, mov,mp4,m4a,3gp,3g2,mj2, from 'C:\Users\hiroshi\Desktop\譁ー縺励>繝輔か繝ォ繝€繝シ\Blood-C OP.mp4':
    Metadata:
    major_brand : mp42
    minor_version : 0
    compatible_brands: isommp42
    creation_time : 2011-07-11 20:19:05
    Duration: 00:01:29.45, start: 0.000000, bitrate: 2178 kb/s
    Stream #0.0(und): Video: h264 (High), yuv420p, 1280×720, 2021 kb/s, 24 fps, 24 tbr, 1k tbn, 48 tbc
    Metadata:
    creation_time : 1970-01-01 00:00:00
    Stream #0.1(und): Audio: aac, 44100 Hz, stereo, s16, 151 kb/s
    Metadata:
    creation_time : 2011-07-11 20:19:05
    [pcm_s16le @ 03f5b800] The requested thread algorithm is not supported with this thread library.
    Output #0, wav, to 'C:\Users\hiroshi\AppData\Local\Temp\7FB120F6-26FC1E5F-D7A369F0-C0DFB287.wav':
    Metadata:
    major_brand : mp42
    minor_version : 0
    compatible_brands: isommp42
    creation_time : 2011-07-11 20:19:05
    encoder : Lavf53.6.0
    Stream #0.0(und): Audio: pcm_s16le, 44100 Hz, 2 channels, s16, 1411 kb/s
    Metadata:
    creation_time : 2011-07-11 20:19:05
    Stream mapping:
    Stream #0.1 -> #0.0
    Press [q] to stop, [?] for help
    video:0kB audio:15404kB global headers:0kB muxing overhead 0.000279%
    E>"C:\Users\hiroshi\Documents\携帯動画変換君\cores\neroAacEnc" -if "C:\Users\hiroshi\AppData\Local\Temp\7FB120F6-26FC1E5F-D7A369F0-C0DFB287.wav" -lc -br 192000 -of "C:\Users\hiroshi\AppData\Local\Temp\7FB120F6-26FC1E5F-D7A369F0-C0DFB287.aac
    E>"C:\Users\hiroshi\Documents\携帯動画変換君\cores\ffmpeg2" -y -threads 3 -i "C:\Users\hiroshi\Desktop\新しいフォルダー\Blood-C OP.mp4" -timestamp "2011-08-09 12:59:04" -vcodec libxvid -vf "scale=640:360,setdar=16:9,pad=0:480:0:60" -r 30 -b 1000k -an -f 3g2 "C:\Users\hiroshi\AppData\Local\Temp\7FB120F6-26FC1E5F-D7A369F0-C0DFB287_1.3g2"
    ffmpeg version N-31700-g8400607, Copyright (c) 2000-2011 the FFmpeg developers
    built on Aug 1 2011 00:52:21 with gcc 4.6.1
    configuration: –enable-gpl –enable-version3 –enable-postproc –enable-libopencore-amrnb –enable-libopencore-amrwb –enable-libgsm –enable-libmp3lame –enable-librtmp –enable-libspeex –enable-libvorbis –enable-libtheora –enable-libvo-aacenc –enable-libvo-amrwbenc –enable-libxvid –enable-libvpx –enable-libx264 –disable-ffserver –disable-ffplay –disable-ffprobe –enable-avisynth –enable-w32threads –extra-ldflags=-static –extra-cflags='-march=i686 -mtune=generic' –optflags='-O2 -finline-functions'
    libavutil 51. 11. 1 / 51. 11. 1
    libavcodec 53. 9. 0 / 53. 9. 0
    libavformat 53. 6. 0 / 53. 6. 0
    libavdevice 53. 2. 0 / 53. 2. 0
    libavfilter 2. 27. 5 / 2. 27. 5
    libswscale 2. 0. 0 / 2. 0. 0
    libpostproc 51. 2. 0 / 51. 2. 0
    Seems stream 0 codec frame rate differs from container frame rate: 48.00 (12001/250) -> 24.00 (24/1)
    Input #0, mov,mp4,m4a,3gp,3g2,mj2, from 'C:\Users\hiroshi\Desktop\譁ー縺励>繝輔か繝ォ繝€繝シ\Blood-C OP.mp4':
    Metadata:
    major_brand : mp42
    minor_version : 0
    compatible_brands: isommp42
    creation_time : 2011-07-11 20:19:05
    Duration: 00:01:29.45, start: 0.000000, bitrate: 2178 kb/s
    Stream #0.0(und): Video: h264 (High), yuv420p, 1280×720, 2021 kb/s, 24 fps, 24 tbr, 1k tbn, 48 tbc
    Metadata:
    creation_time : 1970-01-01 00:00:00
    Stream #0.1(und): Audio: aac, 44100 Hz, stereo, s16, 151 kb/s
    Metadata:
    creation_time : 2011-07-11 20:19:05
    Missing =
    A>Dialog : 処理実行中にエラーが発生しました [Error:1]
    T>Finished.
    何度も申し訳ありません。
    ご指示いただいた通りffmpegのバイナリを更新致しました、しかし
    このような、ログが出てきました。
    どうすれば、いいのでしょうか?
    再度宜しくお願い致します。

  36. white-voice より:

    ヒロCさん、こんにちは。
    当方ではうまくいくようです。
    あてずっぽうに近いですが以下を試してみてください。
    (1)変換設定から「-threads 3」をはずすか、「-threads 0」にする
    (2)元の動画ファイルの保存フォルダ名をパスも含めて半角にしてからやってみる
     面倒であれば適当なドライブの直下に保存してからやってみる
    (3)いろいろなバージョンのffmpegバイナリでやってみる
    お役に立てず申し訳ないです。

タイトルとURLをコピーしました